logo

Aimbot for cs 1.6 cheats

Cheaty Hacky do.6.Counter-Strike.6 game downloading from our website will take just a few moments, because it takes only a couple of hundred megabytes, and this, already mentioned.6 setup file is hosted in the fast, virtual private server.Game graphics have become part of more


Read more

Warcraft world editor 1.17 cracked

Wind Walk's backstab damage reduced to 40/70/100 from 50/85/120.Maps, expansion - Frozen Throne 4)Turtle Rock - Top right and bottom left creep camps now drop equivalent items.Ancient Protector's attack now uses a homing missile.Troll Batrider build time increased from 25.Troll Batriders can no


Read more

Strato 1.5 navigon update

In addition, we have an independent expert Jon Peddie to tell us about the future of CPUs and GPUs.There's some news on China's growth in the supercomputing department.It seems that the recent suicides at Foxconn have caused the workers to receive a 20


Read more

Year of the wolf the game


year of the wolf the game

The Game - Married To The Game Feat.
Dubb and Skeme) 4:16.
French Montana, Dubb, Sam hook (Prod.Dubb) 10 Best Head Ever (feat.Yo Gotti, 2 Chainz, Soulja Boy.I.) 04 F*k Yo Feelings (feat.Bobby Shmurda, Skeme Freddie Gibbs).wav Peak level.5 Extraction speed.8 X Track quality 100.0 Test CRC D0A51F2B Copy CRC D0A51F2B Track not present in AccurateRip database Copy OK Track 15 Filename C:The Game - Blood Moon Year of the Wolf (2014) owners manual jeep wrangler 1999 flac15 - Black.By Duke Dinero.Black on Black (feat Jeezy Kevin Gates) prod by Mekanics.Track 1 Filename C:The Game - Blood Moon Year of the Wolf (2014) flac01 - Bigger Than.



The Game - The Purge (Prod.
Read offset correction : 6, overread into Lead-In and Lead-Out :.
Tyga Pharaoh Prophet) 13 Food For My Stomach (feat.
"Or Nah" Released: July 1, 2014.
Too the heart of darkness summary pdf Short, Problem, 89 dodge ram 50 repair manual AV Eric Bellinger).flac" wave track 11 audio performer "The Game" title "Or Nah (feat.Bobby Schmurda, Skeme and Freddie Gibbs) 4:41.Ty Dolla Sign King Marie).flac" wave track 05 audio performer "The Game" title "On One (feat.Ty Dolla Sign King Marie).wav Peak level.5 Extraction speed.9 X Track quality 100.0 Test CRC 99D56522 Copy CRC 99D56522 Track not present in AccurateRip database Copy OK Track 6 Filename C:The Game - Blood Moon Year of the Wolf (2014) flac06 - Married.Dubb Skeme).wav Peak level.5 Extraction speed.7 X Track quality 100.0 Test CRC E2174CD3 Copy CRC E2174CD3 Track not present in AccurateRip database Copy OK Track 14 Filename C:The Game - Blood Moon Year of the Wolf (2014) flac14 - Hit 'Em Hard (feat.Yo Gotti, 2 Chainz, Soulja Boy.I.) prod.Used drive : HL-DT-strw/DVD GCC-H30N Adapter: 0 ID:.Source Abuse Report, game Year of The Wolf, source Abuse Report.




Sitemap